Affichage des résultats 1 à 2 sur 2

Discussion: Conversion vidéo sous Ubuntu ?

  1. #1
    Nouvel Archosien
    Date d'inscription
    juillet 2009
    Messages
    3

    Conversion vidéo sous Ubuntu ?

    Salut tout le monde.

    Je ne sais pas vraiment si c'est la bonne catégorie, mais bon...

    Mon frère vient d'acheter un archos 2, et globalement, le truc est sympa (surtout pas chère en fait). Par contre, le logiciel de conversion vidéo ne fonctionne évidemment que sous windows.

    Quelqu'un utilisant linux connait un logiciel pouvant faire la conversion? J'ai tenté ffmpeg et mencoder sans succès. Je n'arrive pas à trouver tout les paramètres de compression, l'archos m'indique toujours une erreur de format.

    J'ai tenté :

    ffmpeg -i /home/touiouf/Vidéos/mvi_5344.avi -f avi -s 160x128 -r 15 -b 220k -vcodec libxvid -ab 96k -aspect 5:4 /home/touiouf/Vidéos/Archos/zach-test1.avi

    Mais il me manque un paramètre je suppose, car j'obtiens une petite différence :

    Parametres d'une vidéo compressée avec le logiciel fourni :

    Duration: 00:01:06.46, start: 0.000000, bitrate: 336 kb/s
    Stream #0.0: Video: mpeg4, yuv420p, 160x128 [PAR 1:1 DAR 5:4], PAR 4096:3855 DAR 1024:771, 15 tbr, 15 tbn, 15 tbc
    Stream #0.1: Audio: mp2, 44100 Hz, stereo, s16, 96 kb/s

    Parametres d'une vidéo compressée avec ffmpeg :

    Duration: 00:00:37.80, start: 0.000000, bitrate: 331 kb/s
    Stream #0.0: Video: mpeg4, yuv420p, 160x128 [PAR 1:1 DAR 5:4], 15 tbr, 15 tbn, 15 tbc
    Stream #0.1: Audio: mp2, 44100 Hz, stereo, s16, 96 kb/s

    Les seuls paramètres différents sont : PAR 4096:3855 DAR 1024:771

    Je n'arrive pas à trouver comment modifier ces paramètres dans la page man de ffmpeg. J'ai essayé sans le son, et ca ne marche pas plus. Je précise que je n'y connais absolument rien en vidéo, et que je découvre.

    Si quelqu'un a une solution avec ffmpeg, ou avec un autre logiciel, ca me serait bien utile, merci.

    Ps : Je viens de m'apercevoir que le logiciel fourni utilise mencoder. Je vais devoir me tourner un peu plus vers lui...

  2. #2
    Nouvel Archosien
    Date d'inscription
    juillet 2009
    Messages
    3

    Je suis un boulet...

    En fait, tout est indiqué dans le fichier Convert.ini présent dans C:\Program Files\AVIConverter.

    Donc :

    Pour un archos 2 de 1.8 pouce, en haut qualité et en pleine résolution, il faut entrer dans la console :

    mencoder /home/user/vidéo/à/compresser.avi -ofps 15 -vf-add scale=160:128 -vf-add expand=160:128:-1:-1:1 -srate 44100 -ovc xvid -xvidencopts bitrate=400:max_bframes=0:quant_type=h263 -oac lavc -lavcopts acodec=mp2:abitrate=96 -o /home/user/vidéo/pour/archos.avi

    A adapter suivant les cas.

Informations de la discussion

Utilisateur(s) sur cette discussion

Il y a actuellement 1 utilisateur(s) naviguant sur cette discussion. (0 utilisateur(s) et 1 invité(s))

Discussions similaires

  1. Conversion MKV vers AVI et sous titre
    Par miraceti dans le forum Gen 6
    Réponses: 5
    Dernier message: 03/12/2010, 22:24:19
  2. Archos 10 sous différents OS (XP, Vista et Ubuntu)
    Par rurouniphana dans le forum PC Tablet
    Réponses: 28
    Dernier message: 05/06/2010, 21:56:26
  3. Réponses: 3
    Dernier message: 25/01/2009, 09:46:38
  4. Vidéo/sous titres
    Par zarm dans le forum Gen 6
    Réponses: 5
    Dernier message: 15/11/2008, 11:04:32
  5. Recherche logiciel de conversion format video
    Par david1808 dans le forum Logiciels et contenu
    Réponses: 10
    Dernier message: 17/05/2008, 22:53:15

Règles de messages

  • Vous ne pouvez pas créer de nouvelles discussions
  • Vous ne pouvez pas envoyer des réponses
  • Vous ne pouvez pas envoyer des pièces jointes
  • Vous ne pouvez pas modifier vos messages
  •