Affichage des résultats 1 à 6 sur 6

Discussion: Probleme avec les video HD MKV

  1. #1
    Archosien novice
    Date d'inscription
    avril 2011
    Âge
    26
    Messages
    10

    Probleme avec les video HD MKV

    Alors ben tout dabord bonjour a tous je suis nouveau membre sur ce site mais je mis rend deja depuis plusieurs moi sans etre identifier pour suivre l'actualitée d'Archos et pour cela je vous felicite car votre site est vraimen utile et bien construit il ma aider de nombreuses fois. bon bref, alors voila mon probleme, en fait je convertie mes videos qui sont pour la plupart en AVI en HD MKV avec ce magnifique programme qu'est Xilisoft video converter hd ultimate mais depuis un ceratain temps quand je veux lire la video convertie sur mon Archos 70 la video souvre normalement j'ai le son mais l'image est toute blanche et fait comme des flash et je ne sais pa du tout dou vient le probleme donc voila je voudrais savoir si quelqun pourait me donner la solution a mon probleme merci et Archos Lounge you are the best yeah

  2. #2
    Archosien suspendu
    Date d'inscription
    octobre 2009
    Messages
    8 482
    Espace un peu tes phrases, ponctue davantage et évite les principales fautes, ce sera plus facile pour te lire.

    C'est quoi HD MKV ? 720p ?

    Tu peux rapporter ici toutes informations apportées par MediaInfo sur une de tes vidéos à problème ?

  3. #3
    Archosien novice
    Date d'inscription
    avril 2011
    Âge
    26
    Messages
    10
    MKV HD oui c'est MKV en 720p

    General
    Complete name : C:\Users\Julien\Tracing\Videos\Clipper - Pirates.Des.Caraibes.2.Le.Secret.Du.Coffre.Maudit - Segment1(00_00_00.0-00_03_29.9).mkv
    Format : Matroska
    File size : 153 MiB
    Duration : 3mn 30s
    Overall bit rate : 6 110 Kbps
    Writing application : Lavf51.12.1
    Writing library : Lavf51.12.1
    Video
    ID : 1
    Format : MPEG-4 Visual
    Format settings, BVOP : No
    Format settings, QPel : No
    Format settings, GMC : No warppoints
    Format settings, Matrix : Default (H.263)
    Codec ID : V_MPEG4/ISO/ASP
    Codec ID/Info : Advanced Simple Profile
    Duration : 3mn 30s
    Bit rate : 5 860 Kbps
    Width : 1 280 pixels
    Height : 720 pixels
    Display aspect ratio : 2.40:1
    Original display aspect ratio : 2.40:1
    Frame rate : 25.000 fps
    Resolution : 8 bits
    Colorimetry : 4:2:0
    Scan type : Progressive
    Bits/(Pixel*Frame) : 0.254
    Stream size : 147 MiB (96%)
    Writing library : Lavc51.40.4
    Audio
    ID : 2
    Format : MPEG Audio
    Format version : Version 1
    Format profile : Layer 3
    Format_Settings_Mode : Joint stereo
    Format_Settings_ModeExtension : MS Stereo
    Codec ID : A_MPEG/L3
    Codec ID/Hint : MP3
    Duration : 3mn 30s
    Bit rate mode : Constant
    Bit rate : 128 Kbps
    Channel(s) : 2 channels
    Sampling rate : 48.0 KHz
    Stream size : 3.21 MiB (2%)
    Writing library : LAME3.97

    Voila j'ai mis les informations de mediainfo

  4. #4
    Archosien novice
    Date d'inscription
    avril 2011
    Âge
    26
    Messages
    10
    Vous etes la?

  5. #5
    Archosien confirmé Avatar de mrbelou
    Date d'inscription
    février 2011
    Âge
    42
    Messages
    160
    Je possède : flipper mecanique poker plus
    salut

    je converti mes video pour les lire sur les téléphones et autres petits lecture, sur mon 70it, les mkv en, 720p, je les laisse comme ça, sans les convertir.
    je vais pas pouvoir t'aider
    95% des problèmes de matériel électronique se situent entre le fauteuil et le matériel défectueux
    http://www.unetetedechevreuil.com/

  6. #6
    Archosien novice
    Date d'inscription
    avril 2011
    Âge
    26
    Messages
    10
    Ben en fait c'est des fichiers AVI que je converti en hd MKV 720p pour avoir une bien meilleur image surtout que avex xilisoft on peut modifier le contraste,les couleurs, la luminosité donc on peut faire vraiment des films magnifique mais la convertion en MKV MP4 fais des flash blanc a la place de l'image et pareil pour le MKV H264 mais ce qui est le plus bizare c'est que en DIVX MP4 HD 720P sa marche parfaitement alors je ne comprend vraimen pas le probleme.

Informations de la discussion

Utilisateur(s) sur cette discussion

Il y a actuellement 1 utilisateur(s) naviguant sur cette discussion. (0 utilisateur(s) et 1 invité(s))

Discussions similaires

  1. Réponses: 15
    Dernier message: 31/01/2011, 15:12:41
  2. Grésillements sous WMP HC avec vidéo MKV...
    Par papakuma dans le forum PC Tablet
    Réponses: 0
    Dernier message: 19/09/2010, 11:04:22
  3. Vidéo HD mkv 720p
    Par kindermoumoute dans le forum Gen 7
    Réponses: 3
    Dernier message: 16/06/2010, 18:00:49
  4. Lecture des MKV ou vidéo HD
    Par stratanic dans le forum Gen 7
    Réponses: 7
    Dernier message: 02/01/2010, 10:19:08
  5. Réponses: 7
    Dernier message: 17/11/2009, 13:48:11

Règles de messages

  • Vous ne pouvez pas créer de nouvelles discussions
  • Vous ne pouvez pas envoyer des réponses
  • Vous ne pouvez pas envoyer des pièces jointes
  • Vous ne pouvez pas modifier vos messages
  •