Page 1 sur 3 123 DernièreDernière
Affichage des résultats 1 à 15 sur 32

Discussion: Fichier MKV (saccades, son décalé,....)

  1. #1
    Archosien novice
    Date d'inscription
    décembre 2010
    Âge
    28
    Messages
    18

    Mécontent Fichier MKV (saccades, son décalé,....)

    Bonjour
    Avant de commencer, je vous souhaite une bonne année et de passé un bon réveillon

    Voila, hier j'ai acheter le plug-in cinema sur le site d'archos (15euro) et j'ai telechargé ArchosHDVideoTransfer et ensuite converti mon film (en 720p)

    J'ai voulu le regarder et dès le début son décalé et impossible de regarder mon film....
    J'ai acheter le plug in juste pour pouvoir regarder mes films 720p sur ma tablette
    (j'utilise le lecteur par défault)

    Voila j'espere que quelqu'un va pouvoir m'aider

    (ps: désolé si sujet deja ouvert mais j'ai pas trouver de reponse sur le forum)

    Merci a vous et bonne journée

  2. #2
    Archosien illustre
    Date d'inscription
    décembre 2010
    Âge
    27
    Messages
    3 131
    Je possède : 14 Vision, 2 70IT décédés :(, un Samsung Galaxy Note
    Ton fichier est-il correctement lisible sur ton PC ou le son est aussi décalé? Car cela peut venir de l'encodage.

  3. #3
    Archosien novice
    Date d'inscription
    décembre 2010
    Âge
    28
    Messages
    18
    Mon fichier est parfaitement lisible sur mon ordinateur...
    C bizarre et je suiis qd même assez déçu que cela ne fonctionne pas

  4. #4
    Archosien illustre
    Date d'inscription
    décembre 2010
    Âge
    27
    Messages
    3 131
    Je possède : 14 Vision, 2 70IT décédés :(, un Samsung Galaxy Note
    J'avoue, je ne vois pas ou peut se situer le problème.

  5. #5
    Archosien novice
    Date d'inscription
    décembre 2010
    Âge
    28
    Messages
    18
    Processeur trop lent, lecteur pas compatible,....

    Normalement la tablette est prévue pour pouvoir lire des fichiers mkv ==> en 720p
    j'ai essayer en overdrive ca ne change rien

    Personne n'a une solution ???

  6. #6
    Archosien illustre
    Date d'inscription
    décembre 2010
    Âge
    27
    Messages
    3 131
    Je possède : 14 Vision, 2 70IT décédés :(, un Samsung Galaxy Note
    Tu utilise quel lecteur?

  7. #7
    Archosien novice
    Date d'inscription
    décembre 2010
    Âge
    28
    Messages
    18
    lecteur livré avec la tablette

  8. #8
    Archosien suspendu
    Date d'inscription
    octobre 2009
    Messages
    8 482
    Peux-tu analyser ton fichier avec MediaInfo (gratuit) ? On pourra peut-être t'en dire plus.

  9. #9
    Archosien novice
    Date d'inscription
    décembre 2010
    Âge
    28
    Messages
    18
    Format : Matroska
    File size : 4.37 GiB
    Duration : 1h 23mn
    Overall bit rate : 7 463 Kbps
    Encoded date : UTC 2010-11-20 18:11:42
    Writing application : mkvmerge v4.4.0 ('Die Wiederkehr') built on Oct 31 2010 21:52:48
    Writing library : libebml v1.0.0 + libmatroska v1.0.0

    Video
    ID : 1
    Format : AVC
    Format/Info : Advanced Video Codec
    Format profile : High@L3.1
    Format settings, CABAC : Yes
    Format settings, ReFrames : 5 frames
    Muxing mode : Container profile=Unknown@3.1
    Codec ID : V_MPEG4/ISO/AVC
    Duration : 1h 23mn
    Bit rate : 7 012 Kbps
    Width : 1 280 pixels
    Height : 688 pixels
    Display aspect ratio : 1.860
    Frame rate : 23.976 fps
    Color space : YUV
    Chroma subsampling : 4:2:0
    Bit depth : 8 bits
    Scan type : Progressive
    Bits/(Pixel*Frame) : 0.332
    Stream size : 4.02 GiB (92%)
    Writing library : x264 core 107 r1772 c9dad9e
    Encoding settings : cabac=1 / ref=5 / deblock=1:0:0 / analyse=0x3:0x113 / me=umh / subme=7 / psy=1 / psy_rd=1.00:0.00 / mixed_ref=1 / me_range=16 / chroma_me=1 / trellis=1 / 8x8dct=1 / cqm=0 / deadzone=21,11 / fast_pskip=0 / chroma_qp_offset=-2 / threads=12 / sliced_threads=0 / nr=0 / decimate=1 / interlaced=0 / constrained_intra=0 / bframes=3 / b_pyramid=2 / b_adapt=1 / b_bias=0 / direct=1 / weightb=1 / open_gop=0 / weightp=2 / keyint=250 / keyint_min=23 / scenecut=40 / intra_refresh=0 / rc_lookahead=40 / rc=2pass / mbtree=1 / bitrate=7012 / ratetol=1.0 / qcomp=0.60 / qpmin=10 / qpmax=51 / qpstep=4 / cplxblur=20.0 / qblur=0.5 / ip_ratio=1.40 / aq=1:1.00
    Language : French

    Audio
    ID : 2
    Format : AC-3
    Format/Info : Audio Coding 3
    Mode extension : CM (complete main)
    Codec ID : A_AC3
    Duration : 1h 23mn
    Bit rate mode : Constant
    Bit rate : 448 Kbps
    Channel(s) : 6 channels
    Channel positions : Front: L C R, Side: L R, LFE
    Sampling rate : 48.0 KHz
    Bit depth : 16 bits
    Stream size : 269 MiB (6%)
    Title : AC3 5.1
    Language : French

    Text
    ID : 3
    Format : UTF-8
    Codec ID : S_TEXT/UTF8
    Codec ID/Info : UTF-8 Plain Text
    Title : Forced
    Language : French
    Dernière modification par maxou0004 ; 31/12/2010 à 11:36:46.

  10. #10
    Archosien suspendu
    Date d'inscription
    octobre 2009
    Messages
    8 482
    Je crois que ton problème, c'est la piste audio en DTS. Quand tu convertis le film, utilise le format AC3.

  11. #11
    Archosien confirmé
    Date d'inscription
    avril 2009
    Âge
    21
    Messages
    169
    Non le problème, c'est pas le DTS : j'ai rippé mon bluray "This is it" .Il fait 8.5 Go , a une piste DTS HD 5.1 1500kb/s et une vidéo 720p DE 10733kb/s et il marche parfaitement sur mon 5 IT.

    P.S: le son en DTS est une pure tuerie sur mon logitech Z5500 ( presque comme sur le PC) !!!
    Dernière modification par daugyt ; 31/12/2010 à 11:36:59.

  12. #12
    Archosien novice
    Date d'inscription
    décembre 2010
    Âge
    28
    Messages
    18
    c deja en ac 3
    l

  13. #13
    Archosien novice
    Date d'inscription
    décembre 2010
    Âge
    28
    Messages
    18
    Tu l'as converti avec le logiciel de archos ??

  14. #14
    Archosien amateur Avatar de moonwalk
    Date d'inscription
    novembre 2010
    Messages
    52
    pour moi c le bitrate trop important : Bit rate : 7 012 Kbps : essaie avec un film a 4500 par ex

  15. #15
    Archosien suspendu
    Date d'inscription
    octobre 2009
    Messages
    8 482
    Citation Envoyé par maxou0004 Voir le message
    c deja en ac 3
    l
    Tu as modifié ton message après le mien... Difficile de suivre.

    Peut-être un problème de bitrate, effectivement. Je cite Archos :

    Certains bitrates, résolutions, et/ou file variations may not be compatible.
    Je veux bien creuser si tu m'envoies par MP un extrait d'une vingtaine de secondes. Si c'est un problème de bitrate, il faut compresser davantage.

Informations de la discussion

Utilisateur(s) sur cette discussion

Il y a actuellement 1 utilisateur(s) naviguant sur cette discussion. (0 utilisateur(s) et 1 invité(s))

Discussions similaires

  1. codecs pour un fichier MKV non reconnus...
    Par Ninom dans le forum Gen 7
    Réponses: 6
    Dernier message: 23/02/2010, 09:57:27
  2. Impossible de copier un fichier mkv...
    Par Protocole7 dans le forum Gen 7
    Réponses: 6
    Dernier message: 10/02/2010, 04:12:34
  3. HD et fichier MKV
    Par sinsemilia42 dans le forum Gen 6
    Réponses: 7
    Dernier message: 16/11/2009, 17:26:48
  4. Convertir un fichier .mkv pour le lire
    Par johanthebeatles dans le forum Gen 5
    Réponses: 3
    Dernier message: 03/08/2008, 21:01:40
  5. Problème son décalé
    Par aigle63 dans le forum Gen 5
    Réponses: 12
    Dernier message: 12/11/2007, 22:49:05

Règles de messages

  • Vous ne pouvez pas créer de nouvelles discussions
  • Vous ne pouvez pas envoyer des réponses
  • Vous ne pouvez pas envoyer des pièces jointes
  • Vous ne pouvez pas modifier vos messages
  •